Uralmaz.ru

Datalife Engine / Скачать бесплатно видео супердискотека 90 х

Скачать бесплатно видео супердискотека 90 х

384 kbps avg
Доп. информация: 12 марта зрители телеканала MTV и гости СК "Олимпийский" окунутся в атмосферу девяностых. В легендарном СК пройдет ретромегадэнс "СупердискотЭка 90-х с MTV", где самые топовые артисты 90-х взорвут зал своими хитами.

Вспомните, как покупали жвачку с вкладышем-татуировкой и переводили ее на себя, друзей и домашнюю мебель. Вспомните, как впервые попробовали Mentos и "Киндер-сюрприз". Как до дыр засматривал видеокассеты с клипами C+C Music Factory, Vanilla Ice, Technotronic и MC Hammer. Тогда еще не задавались вопросом - силиконовый ли бюст у певицы Сабрины, и вся страна обсуждала каждое новое видео группы "Комбинация" или "Технология". Это был настоящий прорыв после долгих лет социалистического застоя.
"Руки вверх", "Вирус", Влад Сташевский, "Отпетые мошенники", Кай Метов, "Мальчишник", "Демо", Шура, Scooter, "Кар-Мэн", Rednex и многие другие обещают нереальный драйв и отжиг!

Формат : MPEG-PS
Размер файла : 11,1 Гбайт
Продолжительность : 3 ч. 10 м.
Общий поток : 8327 Кбит/сек
Библиотека кодирования : (c) 1998-2008 Womble Multimedia, Inc. / MPEG Video Wizard (12/2008) / Feb 12 2009

Видео
Идентификатор : 224 (0xE0)
Формат : MPEG Video
Версия формата : Version 2
Профиль формата :
Параметр BVOP формата : Да
Параметр матрицы формата : По умолчанию
Параметры GOP формата : M=3, N=12
Продолжительность : 3 ч. 10 м.
Вид битрейта : Переменный
Битрейт : 7800 Кбит/сек
Ширина : 720 пикс.
Высота : 576 пикс.
Соотношение сторон : 4:3
Частота кадров : 25,000 кадр/сек
Стандарт вещания : PAL
Цветовое пространство : YUV
Подвыборка цветности : 4:2:0
Битовая глубина : 8 бит
Тип развёртки : Чересстрочная
Порядок развёртки : Верхнее поле первое
Метод сжатия : С потерями
Бит/(Пиксели*Кадры) : 0.752
Размер потока : 10,3 Гбайт (93%)
Библиотека кодирования : (c) 1998-2008 Womble Multimedia, Inc. / MPEG Video Wizard (12/2008) / Feb 12 2009

Аудио
Идентификатор : 192 (0xC0)
Формат : MPEG Audio
Версия формата : Version 1
Профиль формата : Layer 2
Продолжительность : 3 ч. 10 м.
Вид битрейта : Постоянный
Битрейт : 384 Кбит/сек
Канал(ы) : 2 канала(ов)
Частота : 48,0 КГц
Метод сжатия : С потерями
Размер потока : 523 Мбайт (5%)

Full hd видео онлайн бесплатно
Скачать бесплатно видео камеди вумен
Большой куш скачать фильм mp4
Видео онлайн кунилингус смотреть бесплатно
О чем говорят мужчины скачать mp4 торрент