Uralmaz.ru

Все для uCoz / Скачать бесплатно мультфильм непослушный котенок через торрент

Скачать бесплатно мультфильм непослушный котенок через торрент

Фильм Котенок скачать бесплатно в професcиональной озвучке или посмотреть онлайн, чтобы начать просмотр нужно нажать на кнопку в плеере и спустя несколько секунд воспроизведение фильма начнется в хорошем HD (High-Definition) качестве 720p или 1080p. Напомним, что посмотреть онлайн вы можете не только на компьютере, но и на андроид (Android), iPhone и iPad. Приятного просмотра!

Скачать бесплатно мультфильм непослушный котенок через торрент 1

Котенок скачать бесплатно или смотреть онлайн

Скачать бесплатно мультфильм непослушный котенок через торрент 2Скачать бесплатно мультфильм непослушный котенок через торрент 3Скачать бесплатно мультфильм непослушный котенок через торрент 4Скачать бесплатно мультфильм непослушный котенок через торрент 5Скачать бесплатно мультфильм непослушный котенок через торрент 6Скачать бесплатно мультфильм непослушный котенок через торрент 7

На нашем сайте имеется возможность смотреть фильмы онлайн в HD (High-Definition) качестве, для этого воспользуйтесь переключателем качества видео в нижнем правом углу плеера. Обратите внимание на то, что чем выше будет качество видео, тем больше времени будет занимать загрузка видео и увеличится количество передаваемого трафика.

Скачать бесплатно мультфильм непослушный котенок через торрент 8

Дата Название раздачи (ссылка) Размер Скачали
31 августа 2016 05:57 Котёнок (1996) DVD-5 | Лицензия.torrent
3,66 Gb 21 31 августа 2016 05:57 Котёнок (1996) DVDRip.torrent

2217 kbps avg, 0.24 bit/pixel
Аудио: 48 kHz, AC3 Dolby Digital, 2/0 (L,R) ch.

192 kbps
Видео: Идентификатор : 0 Формат : MPEG-4 Visual Профиль формата : Advanced [email protected] Параметр BVOP формата : 1 Параметр QPel формата : Нет Параметр GMC формата : Без точки перехода Параметр матрицы формата : Выборочная Идентификатор кодека : XVID Идентификатор кодека/Подсказка : XviD Продолжительность : 1 ч. 20 м. Битрейт : 2218 Кбит/сек Ширина : 688 пикселей Высота : 528 пикселей Соотношение сторон : 4:3 Частота кадров : 25,000 кадров/сек Цветовое пространство : YUV Субдискретизация насыщенности : 4:2:0 Битовая глубина : 8 бит Тип развёртки : Прогрессивная Метод сжатия : С потерями Бит/(Пиксели*Кадры) : 0.244 Размер потока : 1,25 Гбайт (92%) Библиотека кодирования : XviD 64
Аудио: Идентификатор : 1 Формат : AC-3 Формат/Информация : Audio Coding 3 Расширение режима : CM (complete main) Идентификатор кодека : 2000 Продолжительность : 1 ч. 20 м. Вид битрейта : Постоянный Битрейт : 192 Кбит/сек Каналы : 2 канала Расположение каналов : Front: L R Частота : 48,0 КГц Битовая глубина : 16 бит Метод сжатия : С потерями Задержка видео : 16 мс. Размер потока : 111 Мбайт (8%) Выравнивание : Разделение по промежуткам Продолжительность промежутка : 40 мс. (1,00 видеокадр) Время предзагрузки промежутка : 500 мс.

1,36 Gb 49 31 августа 2016 05:57 Котенок (1996) DVDRip.torrent

2234 kbps avg, 0.24 bit/pixel
Аудио: 48 kHz, AC3 Dolby Digital, 2/0 (L,R) ch.

Обрезать видео без скачивания онлайн бесплатно
Скачать бесплатно плеер для видео
Смотреть бесплатно видео макс плюс 100 500
Секс видео бесплатно и без регистрации скачать
Турецкие танцы видео скачать бесплатно